Details for this torrent 


Stumptown. Season 1. revittony
Type:
Video > TV shows
Files:
18
Size:
3.93 GiB (4215257007 Bytes)
Info:
IMDB
Spoken language(s):
English
Uploaded:
2020-03-26 12:10:36 GMT
By:
revittony1 Trusted
Seeders:
0
Leechers:
1
Comments
0  

Info Hash:
CFF87448EBECED602ED42E905724930857232C25




(Problems with magnets links are fixed by upgrading your torrent client!)
 https://www.imdb.com/title/tt10313066


 
Format : Matroska 
Format version : Version 4 
Overall bit rate : 887 kb/s 
Encoded date : UTC 2019-09-26 00:14:45 
Writing application : mkvmerge v8.8.0 ('Wind at my back') 64bit 
Writing library : libebml v1.3.3 + libmatroska v1.4.4 

Video 
ID : 1 
Format : AVC 
Format/Info : Advanced Video Codec 
Format profile : [email protected] 
Format settings : CABAC / 5 Ref Frames 
Format settings, CABAC : Yes 
Format settings, Reference frames : 5 frames 
Codec ID : V_MPEG4/ISO/AVC 
Duration : 42 min 24 s 
Bit rate : 771 kb/s 
Width : 720 pixels 
Height : 402 pixels 
Display aspect ratio : 16:9 
Frame rate mode : Constant 
Frame rate : 23.976 (24000/1001) FPS 
Color space : YUV 
Chroma subsampling : 4:2:0 
Bit depth : 8 bits 
Scan type : Progressive 
Bits/(Pixel*Frame) : 0.111 
Stream size : 234 MiB (87%) 
Writing library : x264 core 157 r2969 d4099dd 
Default : Yes 
Forced : No 
Color range : Limited 
Matrix coefficients : BT.709 

Audio 
ID : 2 
Format : AAC LC 
Format/Info : Advanced Audio Codec Low Complexity 
Codec ID : A_AAC-2 
Duration : 42 min 24 s 
Bit rate : 114 kb/s 
Channel(s) : 2 channels 
Channel layout : L R 
Sampling rate : 48.0 kHz 
Frame rate : 46.875 FPS (1024 SPF) 
Compression mode : Lossy 
Delay relative to video : 20 ms 
Stream size : 34.5 MiB (13%) 
Default : Yes 
Forced : No