Details for this torrent 


Star Trek Picard. Season 1. revittony
Type:
Video > TV shows
Files:
10
Size:
2.48 GiB (2659137849 Bytes)
Info:
IMDB
Spoken language(s):
English
Uploaded:
2020-03-26 11:53:24 GMT
By:
revittony1 Trusted
Seeders:
7
Leechers:
8
Comments
0  

Info Hash:
B6D308863013052D804675E1A5170D4CF81D88C2




(Problems with magnets links are fixed by upgrading your torrent client!)
 https://www.imdb.com/title/tt8806524



Format : Matroska 
Format version : Version 4 
Overall bit rate : 825 kb/s 
Writing application : Lavf58.20.100 
Writing library : Lavf58.20.100 
ErrorDetectionType : Per level 1 

Video 
ID : 1 
Format : AVC 
Format/Info : Advanced Video Codec 
Format profile : [email protected] 
Format settings : CABAC / 4 Ref Frames 
Format settings, CABAC : Yes 
Format settings, Reference frames : 4 frames 
Codec ID : V_MPEG4/ISO/AVC 
Duration : 46 min 6 s 
Bit rate : 3 608 kb/s 
Width : 720 pixels 
Height : 400 pixels 
Display aspect ratio : 16:9 
Frame rate mode : Variable 
Frame rate : 24.000 FPS 
Color space : YUV 
Chroma subsampling : 4:2:0 
Bit depth : 8 bits 
Scan type : Progressive 
Bits/(Pixel*Frame) : 0.522 
Stream size : 1.16 GiB 
Writing library : x264 core 157 
Default : Yes 
Forced : No 

Audio 
ID : 2 
Format : AAC LC 
Format/Info : Advanced Audio Codec Low Complexity 
Codec ID : A_AAC-2 
Duration : 46 min 6 s 
Bit rate : 640 kb/s 
Channel(s) : 2 channels 
Channel layout : L R 
Sampling rate : 48.0 kHz 
Frame rate : 46.875 FPS (1024 SPF) 
Compression mode : Lossy 
Stream size : 211 MiB (78%) 
Writing library : Lavc58.35.100 aac 
Language : English 
Default : Yes 
Forced : No 

Text 
ID : 3 
Format : UTF-8 
Codec ID : S_TEXT/UTF8 
Codec ID/Info : UTF-8 Plain Text 
Duration : 43 min 13 s 
Bit rate : 54 b/s 
Count of elements : 638 
Stream size : 17.0 KiB (0%) 
Language : English 
Default : Yes 
Forced : No